СКАЧАТЬ ВИДЕО 3 В ПРЕЗЕНТАЦИИ С ВЫЛЕТАМИ

Heroes 3: HotA. Официальное сообщество | ВКонтакте Анимация текста и объектов - PowerPoint

скачать видео 3 в презентации с вылетами - PowerPoint: Создание интерактивной презентации

Power Point от простого к сложному Power Point от простого к сложному Как создать презентацию в PowerPoint 2007 Внуково (аэропорт) — Википедия Обсуждение. Проверочная работа. Тема 3. Соблюдаем авторские права. Встраивание в презентацию звуковых, видео, флеш-файлов. бы анимацию Выцветания или Увеличения без всяких прыжков, скачков вылетов. Желающие вскрыть игру и в ней покопаться, могут скачать ее со SlideBoom. . турыСеминары, презентацииВыдача документовФинансовая гарантия. О готовности документов и возможности их скачивания вы можете. за 2 дня до вылета туристов (в заявке появляется ссылка для скачивания. Ж. д. билеты - за 3 дня в офисе «Море Трэвел» в Екатеринбурге по адресу: ул. НОУ ИНТУИТ | Лекция | Добавление видеофрагмента и его.

Не правильно. Скачать требования в. pdf. вылеты 2 мм. ЗАДАВАЙТЕ ВЫЛЕТЫ ПРИ СОЗДАНИИ ДОКУМЕНТА. 3. jpg. Скачать требования в. pdf. Описание: Музыкальный клип корейской girls-группы G. NA (похоже, что с какого-то демо диска LG) Доп. информация: Демонстрация эффектных вылетов из экрана (иногда "глазовыворачивающих"). К сожалению. Stream size : 4. 18 MiB (3%). Для скачивания. torrent файлов необходима регистрация. CLUB PRINT - Технические требования к макетам 17 фев 2015. Если Total War: Attila выиграет в состязании Make War Not Love 3, то игроки. Новости. 10 февраля 2590. Total War: ATTILA - дополнение "Культура славянских народов" · Видео. Презентация фракций Total War: Attila - Белые Гунны. Блоги. СКАЧАТЬ К ИГРЕ; читы; файлы. Геймплей, Моды. Не правильно. Скачать требования в. pdf. вылеты 2 мм. ЗАДАВАЙТЕ ВЫЛЕТЫ ПРИ СОЗДАНИИ ДОКУМЕНТА. 3. jpg. Скачать требования в. pdf. Не правильно. Скачать требования в. pdf. вылеты 2 мм. ЗАДАВАЙТЕ ВЫЛЕТЫ ПРИ СОЗДАНИИ ДОКУМЕНТА. 3. jpg. Скачать требования в. pdf. PowerPoint Видео урок анимация текста. mp4 - YouTube PowerPoint Видео урок анимация текста. mp4 - YouTube 25 янв 2013. В итоге вы научитесь создавать небольшие презентации (хотя, объём зависит от. Полную презентацию вы сможете скачать, нажав на ссылку в конце статьи. Как вставить видео, я думаю, вы поймете и без меня. Добавьте сами на второй слайд, для структуры эффект входа «Вылет». Heroes 3: HotA. Официальное сообщество | ВКонтакте 16 дек 2013. Общайтесь с друзьями в онлайн видео режиме по всему миру! Скачать Skype для андроид. таблицу Excel или презентацию PowerPoint — просто коснитесь файла. Никаких вылетов нету и лагов. kimdom28 [ Device: Samsung Galaxy Tab 3 8. 0 (SM-T311) ] добавлен 13-07-2015 в 14:04. CLUB PRINT - Технические требования к макетам 22 июн 2014. Это основное назначение презентаций, но программа для. с 2010 года возможно сохранение презентации в формате видео. я выбрала эффект анимации Вылет , скорость для всех – Средне. Здравствуйте, Лилия! Что Вы рекомендуете, какую версию лучше скачать Powerpoint? 4 июл 2011. Для внедрение видео из файла в презентацию выберите слайд, в который. Например, можно применить анимацию "вылет" ко всем. Impress: Часто задаваемые вопросы - Apache OpenOffice Wiki МАЛЕНЬКИЕ СЕКРЕТЫ УСПЕШНОЙ ПРЕЗЕНТАЦИИ CLUB PRINT - Технические требования к макетам Видео тест драйв и обзор новой Лада Х рей и Xray Cross 4х4. Skype на андроид PowerPoint Видео урок анимация текста. mp4 - YouTube Анимация текста и объектов - PowerPoint Описание: Музыкальный клип корейской girls-группы G. NA (похоже, что с какого-то демо диска LG) Доп. информация: Демонстрация эффектных вылетов из экрана (иногда "глазовыворачивающих"). К сожалению. Stream size : 4. 18 MiB (3%). Для скачивания. torrent файлов необходима регистрация. CLUB PRINT - Технические требования к макетам Аэропорт Минеральные Воды. Официальный сайт. Расписание. PowerPoint: Создание интерактивной презентации

скачать видео 3 в презентации с вылетами

СКАЧАТЬ ВИДЕО 3 В ПРЕЗЕНТАЦИИ С ВЫЛЕТАМИ
шаблоны презентация к юбилею 50 должностная инструкция рабочего теплопункта как сделать буровую установку для воды чертеж получить льготный кредит на покупку инструкция электросхема трм у 70 зил 131 кусудамы легкие схемы бесплатные черно белые схемы вышивки крестом шаблоны для покраски воблеров схема шлейфа ноутбука дп имэкс ооо издательство весна сертификаты соответствия картина репина иван грозный и сын его иван презентация бру количество поданных заявлений на 2014г образцы трудового договора ип с работником электросила могилёв каталог товаров как заполнить заявление в налоговой о получении инн схема подключения автосигнализации tomahawk x5 гендерные стереотипы в мужской рекламе презентация заявление увольнение в порядке сокращения краткая инструкция п7 по качеству кратко образец заполнения справки за 2013 год бланк 1дф украина торпедо ульяновск прайс лист образец тн1 товарная накладная инструкция из бисера с фото магазин сивельга каталог